osu file format v14

[General]
AudioFilename: Sergey Eybog - Timid Girl.mp3
AudioLeadIn: 2000
PreviewTime: 12979
Countdown: 0
SampleSet: Soft
StackLeniency: 0.7
Mode: 0
LetterboxInBreaks: 0
WidescreenStoryboard: 0

[Editor]
Bookmarks: 30926
DistanceSpacing: 0.9
BeatDivisor: 4
GridSize: 4
TimelineZoom: 1

[Metadata]
Title:Timid Girl
TitleUnicode:Timid Girl
Artist:Sergey Eybog
ArtistUnicode:Sergey Eybog
Creator:ohyeahitsjustme
Version:Easy
Source:Everlasting Summer
Tags:2013 bright side instrumental folk soundtrack peaceful melodic ZLOdeuka- бесконечное лето
BeatmapID:779451
BeatmapSetID:352961

[Difficulty]
HPDrainRate:2
CircleSize:3
OverallDifficulty:2
ApproachRate:3
SliderMultiplier:0.9
SliderTickRate:1

[Events]
//Background and Video events
0,0,"bg.jpg",0,0
//Break Periods
2,24799,29908
//Storyboard Layer 0 (Background)
//Storyboard Layer 1 (Fail)
//Storyboard Layer 2 (Pass)
//Storyboard Layer 3 (Foreground)
//Storyboard Sound Samples

[TimingPoints]
1358,374.882849109653,4,2,1,15,1,0
13354,-100,4,2,1,20,0,0
19352,-100,4,2,1,25,0,1
24600,-100,4,2,1,25,0,0
31348,-100,4,2,1,15,0,0
49343,-100,4,2,1,20,0,0
64338,384.615384615385,4,2,1,20,1,0
65876,422.535211267606,4,2,1,20,1,0
66721,454.545454545455,4,2,1,20,1,0
69212,374.882849109653,4,2,1,20,1,0
75212,387.096774193548,4,2,1,20,1,0
78312,400,4,2,1,20,1,0

[Colours]
Combo1 : 18,205,205
Combo2 : 92,0,185
Combo3 : 224,218,158
Combo4 : 255,130,192

[HitObjects]
144,52,1358,6,0,B|131:88|133:125|148:156,1,90,2|2,0:0|0:0,0:0:0:0:
164,216,2107,2,0,B|174:247|172:277|161:305,1,90,2|2,0:0|0:0,0:0:0:0:
228,352,2857,1,2,0:0:0:0:
308,340,3232,2,0,L|408:324,1,90,2|2,0:0|0:0,0:0:0:0:
452,268,3982,1,2,0:0:0:0:
408,200,4357,6,0,B|389:168|388:131|400:100,1,90,2|2,0:0|0:0,0:0:0:0:
332,64,5106,2,0,B|304:91|262:93|233:72,1,90,2|2,0:0|0:0,0:0:0:0:
168,68,5856,1,2,0:0:0:0:
152,148,6231,2,0,L|136:248,1,90,2|2,0:0|0:0,0:0:0:0:
192,296,6981,1,2,0:0:0:0:
268,328,7356,6,0,B|304:333|338:323|364:304,1,90,2|2,0:0|0:0,0:0:0:0:
396,240,8105,2,0,L|408:144,1,90,2|2,0:0|0:0,0:0:0:0:
348,92,8855,2,0,L|240:84,2,90,2|2|2,0:0|0:0|0:0,0:0:0:0:
400,28,9980,1,2,0:0:0:0:
460,84,10355,6,0,B|478:118|475:158|456:188,1,90,2|2,0:0|0:0,0:0:0:0:
396,212,11104,2,0,L|296:232,1,90,2|2,0:0|0:0,0:0:0:0:
228,240,11854,2,0,B|194:258|157:261|124:252,2,90,2|2|2,0:0|0:0|0:0,0:0:0:0:
284,300,12979,1,2,0:0:0:0:
360,324,13354,6,0,B|408:353|474:324|482:255|445:217,1,180,2|2,0:0|0:0,0:0:0:0:
404,172,14478,1,2,0:0:0:0:
332,136,14853,2,0,L|240:120,1,90,2|2,0:0|0:0,0:0:0:0:
180,68,15603,1,2,0:0:0:0:
136,136,15978,1,2,0:0:0:0:
100,208,16353,6,0,B|76:254|103:314|163:325|203:297,1,180,2|2,0:0|0:0,0:0:0:0:
272,276,17477,1,2,0:0:0:0:
344,312,17852,1,2,0:0:0:0:
412,268,18227,2,0,B|428:235|430:199|420:168,1,90,2|2,0:0|0:0,0:0:0:0:
364,128,18977,1,2,0:0:0:0:
284,136,19352,6,0,L|84:148,1,180,6|2,0:0|0:0,0:0:0:0:
60,216,20477,1,2,0:0:0:0:
116,276,20851,2,0,B|145:321|208:329|251:290|256:242,1,180,2|2,0:0|0:0,0:0:0:0:
272,172,21976,1,2,0:0:0:0:
324,108,22351,6,0,B|351:85|390:86|415:108,1,90,2|2,0:0|0:0,0:0:0:0:
420,184,23101,2,0,L|404:288,1,90,2|2,0:0|0:0,0:0:0:0:
348,328,23850,6,0,B|308:363|247:357|212:313|212:266,1,180,2|2,0:0|0:0,0:0:0:0:
184,40,31348,6,0,B|120:45|73:99|73:165|107:210,2,180,6|2|2,0:0|0:0|0:0,0:0:0:0:
312,136,33597,2,0,L|332:244,2,90,2|2|2,0:0|0:0|0:0,0:0:0:0:
360,68,34722,6,0,B|396:47|441:55|467:83,2,90,2|2|2,0:0|0:0|0:0,0:0:0:0:
284,36,35847,1,2,3:0:0:0:
328,192,36596,2,0,B|289:223|232:211|208:168,2,90,2|2|6,0:0|0:0|0:0,0:0:0:0:
396,240,37721,6,0,L|456:344,2,90,2|2|2,0:0|0:0|0:0,0:0:0:0:
400,156,38846,1,2,3:0:0:0:
272,256,39596,2,0,L|252:388,2,90,2|2|2,0:0|0:0|0:0,0:0:0:0:
220,196,40720,6,0,B|179:179|135:189|104:216,2,90,2|2|2,0:0|0:0|0:0,0:0:0:0:
292,160,41845,1,2,3:0:0:0:
144,92,42595,2,0,B|174:67|213:60|248:68,1,90,,,0:0:0:0:
308,56,43344,6,0,B|352:60|432:32|432:32|412:92,1,180,4|0,0:0|0:0,0:0:0:0:
388,160,44469,1,2,0:0:0:0:
376,240,44844,2,0,B|367:276|374:312|392:340,2,90,,,0:0:0:0:
385,78,46343,6,0,B|351:65|315:68|285:82,1,90,0|2,3:0|0:0,0:0:0:0:
237,132,47093,2,0,B|206:142|175:141|147:131,1,90,0|2,3:0|0:0,0:0:0:0:
75,96,47843,1,2,0:0:0:0:
58,175,48218,2,0,L|38:275,1,90,2|2,3:0|3:0,0:0:0:0:
192,320,49343,6,0,B|223:336|258:336|288:324,1,90,2|2,0:0|0:0,0:0:0:0:
337,271,50092,2,0,L|353:175,1,90,2|2,0:0|0:0,0:0:0:0:
338,102,50842,1,2,0:0:0:0:
259,123,51217,2,0,B|228:139|194:140|164:128,1,90,2|2,0:0|0:0,0:0:0:0:
93,111,51967,1,4,0:3:0:0:
104,192,52342,6,0,L|112:292,1,90,2|2,0:0|0:0,0:0:0:0:
176,328,53091,2,0,B|206:351|246:351|275:332,1,90,2|2,0:0|0:0,0:0:0:0:
320,284,53841,2,0,B|349:272|381:277|405:295,1,90,2|2,0:0|0:0,0:0:0:0:
466,347,54591,1,4,0:3:0:0:
308,360,55341,6,0,B|229:376|152:326|134:243|163:179,1,270,2|2,0:0|0:0,0:0:0:0:
180,116,56840,1,2,0:0:0:0:
260,108,57215,2,0,L|368:96,2,90,2|2|2,0:0|0:0|0:0,0:0:0:0:
284,184,58340,6,0,B|351:202|360:310|246:343|196:270|218:217,1,270,2|2,0:0|0:0,0:0:0:0:
219,137,59839,1,2,0:0:0:0:
152,90,60214,2,0,B|118:82|84:84|54:93,2,90,2|2|2,0:0|0:0|0:0,0:0:0:0:
137,169,61339,6,0,B|103:333|103:333|147:323|208:338,1,270,2|2,0:0|0:0,0:0:0:0:
283,357,62838,1,2,0:0:0:0:
358,327,63213,2,0,B|392:315|426:314|458:322,2,90,2|2|2,0:0|0:0|0:0,0:0:0:0:
256,192,64338,12,2,67630,0:0:0:0:
232,96,69212,6,0,B|312:40|352:144|416:60|416:60|428:76,2,180,2|2|2,0:0|0:0|0:0,0:0:0:0:
164,244,71461,2,0,B|202:260|243:252|272:228,2,90,2|2|2,0:0|0:0|0:0,0:0:0:0:
88,216,72585,6,0,L|56:348,2,90,2|2|2,0:0|0:0|0:0,0:0:0:0:
111,138,73710,1,2,3:0:0:0:
212,288,74460,2,0,L|196:196,2,90,2|2|2,0:0|0:0|0:0,0:0:0:0:
280,332,75599,6,0,B|313:353|354:346|379:321,2,90,2|2|2,0:0|0:0|0:0,0:0:0:0:
320,260,76760,1,2,3:0:0:0:
396,116,77534,2,0,B|357:97|313:101|280:124,2,90,2|2|2,0:0|0:0|0:0,0:0:0:0:
399,197,78712,6,0,L|383:305,1,90,2|2,0:0|0:0,0:0:0:0:
316,327,79512,1,2,0:0:0:0:
245,286,79912,1,2,0:0:0:0:
